#TITLE:周大侠;
#SUBTITLE:;
#ARTIST:周杰伦;
#TITLETRANSLIT:;
#SUBTITLETRANSLIT:;
#ARTISTTRANSLIT:;
#CREDIT:;
#BANNER:ܴ-logo.jpg;
#BACKGROUND:ܴ.jpg;
#LYRICSPATH:;
#CDTITLE:Lan.png;
#MUSIC:ܴ.mp3;
#OFFSET:-0.020;
#SAMPLESTART:100.000;
#SAMPLELENGTH:12.000;
#SELECTABLE:YES;
#BPMS:0.000=168.000;
#STOPS:;
#BGCHANGES:;
// cache tags:
#FIRSTBEAT:4.000;
#LASTBEAT:356.500;
#SONGFILENAME:Songs/lan sky/ZhouDaXia/ܴ.sm;
#HASMUSIC:1;
#HASBANNER:1;
#MUSICLENGTH:134.024;
// end cache tags

//---------------dance-single - sky----------------
#NOTES:
     dance-single:
     sky:
     Challenge:
     13:
     1.000,1.000,1.000,0.149,1.000,1316.000,279.000,20.000,0.000,19.000:

0000
0000
0000
0000
,
0001
0010
0001
0010
0001
0010
0100
1000
0010
0001
0000
0100
0001
0000
0010
0100
,
0001
0100
0001
0100
0001
0010
0100
1000
0100
0010
0000
0100
0001
0000
0010
0100
,
0001
0010
0001
0010
0001
0010
0100
0010
0100
0001
0000
0100
0001
0010
0001
0100
,
1000
1000
0010
0010
1000
1000
0010
0010
1001
0100
0010
0001
1010
1000
1000
1000
,
0010
0100
0001
0100
0001
0100
1000
0100
0001
0100
0010
0100
1000
0010
0001
0100
,
1001
0010
0100
0010
0001
0100
0010
1000
0100
0010
0100
0010
0001
0010
0100
1000
,
0101
1000
0010
0100
1000
0100
1000
0001
0100
0010
1000
0100
0001
0100
0010
0001
,
1010
0100
0010
0100
1000
0100
0010
0100
0001
0010
1000
0100
0001
0010
0100
1000
,
0101
1000
0100
0010
0001
0010
0100
0010
0100
0010
0001
0100
0001
0100
0010
1000
,
0101
0010
0100
0010
1000
0010
0100
0010
0001
0100
0010
0100
0001
0010
0100
1000
,
0011
0100
0010
1000
0101
1000
0001
0010
0100
0010
0100
0001
1010
0100
1010
0001
,
2020
0000
0000
0000
0000
0000
0000
0000
3131
0100
0100
0100
0011
0011
0011
0011
,
1100
0010
1000
0010
0101
1000
0101
1000
0100
0010
0001
0010
1001
0100
0010
0100
,
1001
0010
0100
0010
0101
1000
0101
1000
0010
0100
1000
0010
1001
0010
0100
1000
,
0011
0100
1000
0001
1010
0100
1010
0001
0100
0010
1000
0010
1001
0010
0100
0010
,
0101
1000
0100
0001
1010
0001
1010
0001
1000
0010
0100
0010
1001
0100
0010
0001
,
1010
0100
1000
0010
0101
1000
0101
1000
0001
0100
0010
0100
1001
0010
0100
0010
,
1001
0010
0100
0010
0101
1000
0101
1000
0010
1000
0010
0100
1001
0010
0100
1000
,
0011
0100
1000
0100
1010
0001
1010
0001
0100
0010
1000
0010
1001
0010
1000
0100
,
1010
0000
0000
0001
0000
0000
1000
0000
0100
0000
0010
0000
0001
0000
0000
1000
0000
0000
0100
0000
0000
0001
0000
0000
1010
0000
0000
0100
0000
0000
0010
0000
0000
0100
0000
0000
1001
0000
0000
0001
0000
0000
0001
0000
0000
0010
0000
0000
,
1001
0100
0010
1000
0101
1000
0101
1000
0001
0100
0001
0010
1001
0100
0001
0010
,
1000
0100
0001
1000
0101
1000
0101
1000
0001
0100
0001
0010
1001
0100
0010
0001
,
0100
1000
0010
0001
1010
0100
1010
0001
0010
1000
0010
0100
1000
0100
0010
1000
,
0100
0001
0010
0100
1010
0100
1010
0001
0010
1000
0100
1000
0001
0010
0100
1000
,
0100
0001
0010
0100
0001
0100
1000
0010
0100
0001
0100
0010
0001
1000
0100
0010
,
1000
0100
1000
0001
0100
0010
0001
1000
0100
0010
0100
0010
0001
0010
0100
1000
,
0101
0010
0100
0010
1001
0100
1001
0100
0001
0100
0010
0100
1001
0010
0100
1000
,
0011
0100
1000
0010
1001
0100
0001
0010
0101
0010
1001
0010
0101
0010
1001
0010
,
1001
0010
0100
1000
1001
0100
0010
0001
1010
0100
0010
0001
1001
0010
0100
1000
,
0101
0010
0100
1000
1001
0100
0010
0001
1010
0100
0010
0001
1001
0010
0100
1000
,
0101
0010
0001
0100
1010
0100
1000
0100
0001
0010
0001
0100
1010
0001
0100
1000
,
0101
0010
0001
0100
1010
0100
1000
0100
0001
0010
0100
1000
0001
0010
1000
0100
,
1001
0010
0100
1000
1001
0100
0010
0001
1010
0100
0010
0001
1001
0010
0100
1000
,
0101
0010
0100
1000
1001
0100
0010
0001
1010
0100
0010
0001
1001
0010
0100
1000
,
0011
0100
0001
0010
0001
1000
0001
0010
0001
1000
0001
1000
0101
0010
0100
0001
,
0010
1000
0001
0100
0010
0100
1001
0010
0001
0100
0010
0100
1001
0010
0100
0010
,
1001
0010
0100
1000
1001
0100
0010
0001
1010
0100
0010
0001
1001
0010
0100
1000
,
0101
0010
0100
1000
1001
0100
0010
0001
1010
0100
0010
0001
1001
0010
0100
1000
,
0010
0100
0001
1000
0001
0010
1001
0100
0001
0010
0001
0100
1010
0001
0100
0010
,
1001
0100
0001
0100
0010
1000
0010
0100
1010
0100
0010
0001
1010
0100
0001
0010
,
1001
0010
0100
1000
1001
0100
0010
0001
1000
0100
0010
0001
1001
0010
0100
1000
,
0001
0010
0100
1000
1001
0100
0010
0001
1000
0100
0010
0001
1001
0010
0100
1000
,
0001
0010
0001
0010
1000
0100
1001
0100
0001
0010
0001
0100
1001
0100
0001
0100
,
1010
0100
0001
0010
1000
0010
1001
0100
0001
0010
0100
0001
1010
0100
0010
0001
,
2010
0000
3201
0000
,
1320
0000
0132
0000
,
0000
0000
0000
0000
,
1103
0000
0010
0010
0001
0010
1000
0001
0001
0001
1100
0001
0001
0001
1001
0001
,
1010
0100
0010
0001
1020
0100
0001
1000
0100
1000
0001
0100
1031
0100
0010
0001
,
1010
0100
0001
0100
1020
0100
0001
1000
0001
0100
1000
0100
1031
0100
0001
0010
,
1001
0100
0010
0001
0210
0001
1000
0010
1000
0001
1000
0010
1301
0010
0100
0010
,
1001
0100
1000
0010
0201
0010
1000
0001
1000
0010
1000
0010
1301
0010
0100
1000
,
0011
1000
0010
0100
2001
0010
0100
0010
0001
0100
0001
0010
3101
0010
1000
0100
,
0011
1000
0010
0100
2001
0010
0001
0100
0010
0001
0100
0010
3101
0010
0100
1000
,
0011
1000
0100
0010
0201
1000
0010
0001
1000
0001
1000
0010
1301
0010
0100
0001
,
1010
0100
0010
1000
0201
0010
0001
0010
1001
0010
0001
0010
1301
0010
0100
1010
,
0101
1000
0010
0100
1020
0001
1000
0100
0001
0100
1000
0100
1031
0100
0010
1000
,
0011
0100
1000
0100
0021
0100
1000
0100
0001
1000
0100
0001
1130
0001
0010
0100
,
1001
0010
0001
0010
1200
0010
0001
0010
1000
0001
1000
0010
1301
0010
0100
0010
,
1001
0100
0001
0010
1200
0001
0010
0001
1000
0010
0001
0010
1301
0010
0100
1000
,
0011
0100
0010
0001
2100
0010
0100
0001
0010
0100
0010
0100
3001
0010
1000
0100
,
0010
0001
0100
0010
2100
0001
0010
0100
0001
0010
0001
0100
3001
0100
0010
0001
,
1010
0001
0100
0010
1000
0010
0101
0010
1000
0001
0100
0010
1001
0010
0001
0100
,
1010
0000
0000
0001
0000
0000
1000
0000
0100
0000
0010
0000
0001
0000
0000
1000
0000
0000
0101
0000
0000
0010
0000
0000
1000
0000
0000
0001
0000
0000
0010
0000
0000
0100
0000
0000
1001
0000
0000
1001
0000
0000
1001
0000
0000
1001
0000
0000
,
0100
0010
0100
0010
0001
0000
0001
0000
0101
0000
0100
0000
0001
0000
0001
0000
,
1100
0000
0100
0000
0001
0000
0100
0010
1001
0000
1000
0000
0011
0000
0001
0000
,
1010
0001
0010
0001
0010
0000
0001
0010
1100
0000
1000
0000
0011
0000
0001
0000
,
1100
1000
0010
0010
1100
1000
0101
0001
,
1001
0100
1000
0100
1000
0000
0010
0000
1010
0000
1000
0000
0001
0000
0001
0000
,
1100
0000
1000
0000
0010
0000
0010
0100
1000
0000
1000
0000
0101
0000
0001
0000
,
1001
0100
1000
0100
1001
0100
1000
0100
1001
0100
1000
0100
1001
0100
1000
0100
,
1010
0100
1010
0101
1010
0100
1001
0100
1010
0100
1001
0100
1010
0100
1001
0100
,
1001
0100
1000
0100
1001
0010
0001
0010
0101
0010
0100
0010
1001
0100
1000
0100
,
1010
0100
0010
0100
1010
0100
1000
0100
1001
0010
0001
0010
1001
0100
1000
0100
,
1010
0100
0010
0100
1010
0100
1001
0010
0100
0010
0100
1000
0011
0100
0010
1000
,
0101
1000
0100
0001
1010
0101
1010
0001
0010
0001
1010
0100
1010
0001
0010
0100
,
1001
0100
1000
0100
1001
0010
0001
0010
0101
0010
0100
0010
1001
0100
1000
0100
,
1010
0100
0010
0100
1010
0100
1000
0100
1001
0010
0001
0010
1001
0100
1000
0100
,
1010
0100
1000
0100
1001
0010
1001
0010
0100
0010
1000
0100
0011
0100
1010
0100
,
1010
0100
1001
0100
1001
0100
0001
1000
0101
0010
0101
0010
1101
0010
1100
0010
,
1001
0010
0001
0010
1001
0100
1000
0100
1010
0100
0010
0100
1001
0010
0001
0010
,
0101
0010
0100
0010
0101
0010
0001
0010
1001
0100
1000
0100
1001
0010
0001
0010
,
1100
0010
0100
0010
1001
0100
1010
0100
1001
0010
0001
0010
0101
0010
0100
0010
,
1100
0001
0010
0001
1010
0100
1010
0100
1000
0100
1001
0100
0011
1000
0101
0010
,
1001
0010
0001
0010
1001
0100
1000
0100
1010
0100
0010
0100
1001
0010
0001
0010
,
0101
0010
0100
0010
0101
0010
0001
0010
1001
0100
1000
0100
1001
0010
0001
0010
,
1001
0100
1000
0100
1010
0001
1010
0001
1000
0100
1000
0100
1010
0100
0001
0010
,
1001
0010
1001
0100
1010
0100
1001
0010
1001
0010
0101
1000
0110
1000
0100
0010
,
1001
0110
0000
0000
0000
0000
0000
0000
;
